Encerrado

help to remove yuv420p(tv, bt709/unknown/unknown) from h264 mp4 ffmpeg

i have 2 mp4 file one is working in all browser and the other it's not working

Input #0, mov,mp4,m4a,3gp,3g2,mj2, from '[login to view URL]':

Metadata:

major_brand : isom

minor_version : 512

compatible_brands: isomiso2avc1mp41

encoder : Lavf56.40.101

Duration: 00:40:22.55, start: 0.000000, bitrate: 917 kb/s

Stream #0:0(und): Video: h264 (High) (avc1 / 0x31637661), yuv420p(tv, bt709/unknown/unknown), 720x404 [SAR 1:1 DAR 180:101], 789 kb/s, 23.98 fps, 23.98 tbr, 16k tbn, 47.95 tbc (default)

Metadata:

handler_name : VideoHandler

Stream #0:1(und): Audio: aac (LC) (mp4a / 0x6134706D), 48000 Hz, stereo, fltp, 119 kb/s (default)

Metadata:

handler_name : SoundHandler

============================================================================

Input #0, mov,mp4,m4a,3gp,3g2,mj2, from '[login to view URL]':

Metadata:

major_brand : isom

minor_version : 512

compatible_brands: isomiso2avc1mp41

encoder : Lavf58.20.100

Duration: 00:40:22.55, start: 0.000000, bitrate: 652 kb/s

Stream #0:0(und): Video: h264 (High) (avc1 / 0x31637661), yuv420p, 720x404 [SAR 1:1 DAR 180:101], 516 kb/s, 23.98 fps, 23.98 tbr, 24k tbn, 47.95 tbc (default)

Metadata:

handler_name : VideoHandler

Stream #0:1(und): Audio: aac (LC) (mp4a / 0x6134706D), 48000 Hz, stereo, fltp, 128 kb/s (default)

Metadata:

handler_name : SoundHandler

Habilidades: Edição de Vídeo, Serviços de vídeo, Ubuntu, Linux, Produção de Vídeo

Veja mais: help remove malware website, zen cart help remove lbs, flash embedded movie player h264 mp4, flash h264 mp4 embed, freebsd convert mp4 ffmpeg, mp4 ffmpeg segmenter, flv mp4 ffmpeg android, need help remove slander blog, red5 mp4 ffmpeg, red5 mp4 ffmpeg stream video, please help remove winrar password, red5 h264 mp4, flv mp4 ffmpeg source code, help remove icloud iphone, mobile mp4 ffmpeg

Acerca do Empregador:
( 12 comentários ) oujda, Morocco

ID do Projeto: #21982577

5 freelancers estão ofertando em média $26 para esse trabalho

leemilun

How are you? Nice to meet you. I can give you amazing result in time. If you choose me, I'll do my best for you. We can discuss more detail over chat. Best Regards.

$30 USD in 7 dias
(11 Comentários)
5.2
tamas421

I would like to apply for the task. Actually, just checking the dumped log what you have provided. You might contact with me in the next few hours.

$14 USD em 1 dia
(38 Comentários)
4.4
hamidazr

Hello, I'm an experienced Linux Administrator and very familiar with Video codecs/streaming and ffmpeg tool. So I can help you related to your video files and utilizing ffmpeg tool. But please let me know what do you Mais

$30 USD in 3 dias
(2 Comentários)
2.9
Olatunde007

I'm Professional Video Editor. So, I think i know what you want

$25 USD in 2 dias
(0 Comentários)
0.0
mathumathiad

Hi. The metadata shows that one is a high definition (wide screening) h264 video while the other not. May be a re - transcoding with tools like ffmpeg/media foundation etc. helps to make it playable on browsers.

$30 USD in 7 dias
(0 Comentários)
0.0